IPEI online Index du Forum
Home - FAQ - Rechercher - Membres - Groupes - S’enregistrer - Profil - Se connecter pour vérifier ses messages privés - Connexion
 
The.Vampire.Diaries.S04E14.HDTV.XviD-AFG.avi

IPEI online Index du Forum -> Langues -> Français
Poster un nouveau sujet Répondre au sujet Sujet précédent :: Sujet suivant
Auteur Message
inforzom


Hors ligne

Inscrit le: 12 Mar 2016
Messages: 24
Masculin
Point(s): 179
Moyenne de points: 7,46

MessagePosté le: Mer 13 Avr - 22:44 (2016) Sujet du message: The.Vampire.Diaries.S04E14.HDTV.XviD-AFG.avi Répondre en citant




The.Vampire.Diaries.S04E14.HDTV.XviD-AFG.avi > nutshellurl.com/4hcug









The.Vampire.Diaries.S04E14.HDTV.XviD-AFG.avi

c244749286
2003-2016 Torrentz0.030s. 07:30 1The Most Beautiful Celebrity Daughters 3 days ago 5 views . Related to the vampire diaries s04e14The Vampire Diaries S04E14 FASTSUB VOSTFR HDTV XviD ADDiCTiON tv divx xvid53 years353 MB 71 The Vampire Diaries S04E14 HDTV Subtitulado Esp SC avi tv video shows 3 years340 MB 10 The Vampire Diaries S04E14 HDTV x264 LOL mp4 tv 3 years188 MB 00 The Vampire Diaries S04E14 720p HDTV X264 DIMENSION tv hd episodes video shows63 years769 MB 03 The Vampire Diaries S04E14 720p HDTV X264 DIMENSION tv video hd shows 3 years786 MB 00 The Vampire Diaries S04E14 HDTV x264 LOL tv divx xvid33 years194 MB 00 The Vampire Diaries S04E14 HDTV x264 LOL ettv tv divx xvid83 years194 MB 00 The Vampire Diaries S04E14 720p HDTV X264 DIMENSION tv divx xvid33 years786 MB 00 The Vampire Diaries S04E14 HDTV x264 LOL eztv tv divx xvid83 years194 MB 02 The Vampire Diaries S04E14 720p HDTV X264 DIMENSION tv hd53 years769 MB 00 The Vampire Diaries S04E14 HDTV x264 LOL tv divx xvid13 years194 MB 00 The Vampire Diaries S04E14 HDTV XviD AFG tv divx xvid93 years342 MB 02 The Vampire Diaries S04E14 480p HDTV x264 mSD tv divx xvid43 years132 MB 00 The Vampire Diaries S04E14 HDTV x264 LOL mp4 tv 3 years194 MB 00 The Vampire Diaries S04E14 HDTV x264 LOL tv hd13 years194 MB 00 . Sample info: Duration: 00:41:52.46, start: 0.000000, bitrate: 1141 kb/s Stream #0.0: Video: mpeg4 (Advanced Simple Profile), yuv420p, 640x360 [PAR 1:1 DAR 16:9], 23.98 tbr, 23.98 tbn, 23.98 tbc Stream #0.1: Audio: mp3, 48000 Hz, stereo, s16, 128 kb/s title : The.Vampire.Diaries.S04E14.HDTV.XviD-AFG360p.audio. - Over 300 TB available in all categories.

Post a comment You need to log in before you can post comments. 08:06 0Funny videos 2016 funniest commercials of all time 2 days ago 1 views . 05:12 0Funny Chinese iLLuSioniSt - 2 Komik inli iLL zyoniSt 1 days ago 2 views . -info about seeders & leechers is only approximate, 0 doesn't have to mean dead, try to download it anyway! -download BitTorrent Bible (nice BT manual, PDF) -got a question ? Contact us. Torrentz Search myTorrentz Profile Help . torrent contents The.Vampire.Diaries.S04E14.HDTV.XviD-AFG torrent The.Vampire.Diaries.S04E14.HDTV.XviD-AFG The.Vampire.Diaries.S04E14.HDTV.XviD-AFG.avi342.03 Mb torrent search The.Vampire.Diaries.S04E14.HDTV.XviD-AFG.nfo438 bytes torrent search Torrent Downloaded From ExtraTorrent.com.txt339 bytes torrent search . Be careful of what you download or face the consequences.You need a client like qBittorrent, Deluge or Transmission to download.

serial number cuteftp 9.rardownload app world versi terbaruThunderDome - Best Of 98nude famille nudiste cul seins chatte contest concours mpegSpider - Man (2007/RUS/ENG)norton 19.9.1.14 product KEY onlycomsol 4.3a free license.dat -comsol.comthe slight edge pdf free downloadthe holy quran v5.0 free downloadmakelam@DMS Night24 File192 ?.???


Revenir en haut

Auteur Message
Publicité






MessagePosté le: Mer 13 Avr - 22:44 (2016) Sujet du message: Publicité

PublicitéSupprimer les publicités ?
Revenir en haut

Poster un nouveau sujet Répondre au sujet IPEI online Index du Forum -> Langues -> Français Toutes les heures sont au format GMT + 1 Heure
Page 1 sur 1


Sauter vers:  

Index | Panneau d’administration | créer un forum gratuit | Forum gratuit d’entraide | Annuaire des forums gratuits | Signaler une violation | Conditions générales d'utilisation
Powered by phpBB © 2001,2003 phpBB GroupTraduction par : phpBB-fr.com. Black_Xire logo © 2004 BaRiMzI. All images except original subSilver images are property/trademarks of RiMzInK.com. Black_Xire made by BaRiMzI